News Banner

bags groove oscar peterson Institute

Just fill in the form below, click submit, you will get the price list, and we will contact you within one working day. Please also feel free to contact us via email or phone. (* is required).

  • Bag's Groove — Jazz Empowers

    Oscar Peterson. This take on Bag’s Groove was recorded live by Oscar Peterson and can be found on the Jazz Icons Series 3: Oscar Peterson Live ‘63, ‘64, ‘65. Oscar Peterson- Piano Ray Brown- …

    Get Price
  • Oscar Peterson Trio: Bag’s Groove – No Treble

    2017-12-17 · Here’s a fantastic take on “Bag’s Groove” with the Oscar Peterson Trio. After playing perfect accompanying lines to accent the melody, Brown takes an extended solo that causes the crowd to erupt in applause. Then he’s back to playing the perfect bass lines to lock in with drummer Ed Thigpen and support Peterson. YouTube. griffon jazz.

    Get Price
  • Bags' Groove (Remastered) - Oscar Peterson Trio -

    Bags' Groove (Remastered) by Oscar Peterson Trio chart history on Spotify, Apple Music, iTunes and YouTube. Week-by-week music charts, peak chart positions and airplay stats.

    Get Price
  • Chords for Oscar Peterson - Bags' Groove

    [C Gm Bb D G Am Em E F Dbm A] Chords for Oscar Peterson - Bags' Groove (transcription) + double bass with song key, BPM, capo transposer, play along with guitar, piano, ukulele & mandolin.

    Get Price
  • Ray Brown w. Oscar Peterson Herb Ellis - Bags Groove

    2015-6-16 · Oscar Peterson Herb Ellis - Bags Groove (DVD). Webcam. Follow. 6 years ago | 40 views. Ray Brown w. Oscar Peterson Herb Ellis - Bags Groove (DVD). Report. Browse more videos.

    Get Price
  • Milt Jackson “Bag’s Groove” — The Jazzomat Research

    1999-10-9 · In 1989, Jackson was awarded an Honorary Doctorate of Music from Berklee College of Music. His composition ' Bags' Groove ' is a jazz standard ('Bags' was a nickname given to him by a bass player in Detroit. 'Bags' referred to the bags under his eyes). He was featured on the NPR radio program Jazz Profiles.

    Get Price
  • Bag's Groove Sheet music for Piano (Solo) |

    Series: Omnibook Format: Softcover Artist: Oscar Peterson This is the ultimate resource for studying the work of Oscar Peterson! Nearly 40 full transcriptions of songs by this jazz piano master arranged for single-line C instruments, including: All of Me • Between the Devil and the Deep Blue Sea • Falling in Love with Love • Georgia on My Mind • I Got It Bad and That Ain't Good • If ...

    Get Price
  • Oscar Peterson – Omnibook - C Instruments | Hal

    2015-4-27 · Oscar Peterson Trio - Night Train[24,96]flac ├Paquito D'Rivera拉丁 ├1996.Portraits Of Cuba[24,96]flac ├Patricia Barber蓝调+女声 ├2004.Live A Fortnight In France[24,96]flac ├Phoebe Snow 蓝调+灵歌 ├1989.It Looks Like Snow[24

    Get Price
  • Milt Jackson “Bag’s Groove” — The Jazzomat Research

    1999-10-9 · In 1989, Jackson was awarded an Honorary Doctorate of Music from Berklee College of Music. His composition ' Bags' Groove ' is a jazz standard ('Bags' was a nickname given to him by a bass player in Detroit. 'Bags' referred to the bags under his eyes). He was featured on the NPR radio program Jazz Profiles.

    Get Price
  • Ray Brown w. Oscar Peterson Herb Ellis - Bags Groove

    2015-6-16 · Oscar Peterson Herb Ellis - Bags Groove (DVD). Webcam. Follow. 6 years ago | 40 views. Ray Brown w. Oscar Peterson Herb Ellis - Bags Groove (DVD). Report. Browse more videos.

    Get Price
  • The Oscar Peterson Trio – Night Train (1998, 180g,

    2015-4-27 · Oscar Peterson Trio - Night Train[24,96]flac ├Paquito D'Rivera拉丁 ├1996.Portraits Of Cuba[24,96]flac ├Patricia Barber蓝调+女声 ├2004.Live A Fortnight In France[24,96]flac ├Phoebe Snow 蓝调+灵歌 ├1989.It Looks Like Snow[24

    Get Price
  • Night Train - Oscar Peterson Trio : Free Download,

    2016-1-26 · Project 366 Listener Guide #16. 'Night Train - Oscar Peterson Trio'. For your listening pleasure, I chose to program the 1962-63 Verve release Night Train, which is considered one of Peterson's most commercially successful recordings. I think one of the reasons for that success was that it received very favourable air play at the time - the ...

    Get Price
  • 50 EASY JAZZ SOLOS BY JAZZ MASTERS

    2021-3-24 · Miles Davis Doxy Bags' Groove Miles Davis jazz standard swing - medium 4/4 AABA Oscar Peterson Green Dolphin Steet The Essential Oscar Peterson: The Swinger Oscar Peterson standard swing - medium 4/4 ABAC Paul Chambers Blue Train Blue Train John Coltrane jazz standard swing - medium 4/4 blues Paul Desmond Take Five Time Out Dave Brubeck modal ...

    Get Price
  • Oscar Peterson - Night Train | Presto Jazz

    2021-3-29 · Oscar Peterson - Night Train. Oscar Peterson, also known as the “King Inside of Swing”, cut some of the most acclaimed jazz recordings during his career. As a child, Peterson grew up in Montreal, Quebec as a son of immigrants from the West Indies immigrants, in the predominantly Black neighbourhood of Little Burgundy.

    Get Price
  • Oscar Peterson Trio - Night Train (CD) - Amoeba Music

    2021-6-21 · Oscar Peterson Trio The Trio [180 Gram Vinyl] (LP) Oscar Peterson Trio View More. Label Releases. Bird In LA [Record Store Day] (LP) Charlie Parker ... Bags' Groove . Oscar Peterson 05:43: 5. Moten Swing . Oscar Peterson 02:55: 6. Easy Does It . Oscar Peterson ...

    Get Price
  • (Jazz, Bop) Oscar Peterson, 4 Albums: At The

    TITLE 'Bags' Groove' PERFORMER 'The Oscar Peterson Trio' INDEX 00 03:43:40 FILE '04 - Bags' Groove.wav' WAVE INDEX 01 00:00:00 TRACK 05 AUDIO TITLE 'Moten Swing' PERFORMER 'The Oscar Peterson Trio' INDEX 00 05:38:62 FILE '05 - Moten Swing.wav' WAVE INDEX 01 00:00:00 TRACK 06 AUDIO

    Get Price
  • Tribute - Oscar Peterson | Songs, Reviews, Credits |

    Oscar Peterson, who suffered a stroke in 1993, has since made a partial comeback. Although his left hand is weakened, the pianist's right hand is as powerful as ever, and he is able to mostly cover up his deficiencies. This live album, Tribute, makes it clear that many jazz fans and musicians are delighted to have Peterson back

    Get Price
  • Oscar Peterson - Bags' Groove Lyrics | MetroLyrics

    Oscar Peterson. Hmm, that's weird. Either these lyrics don't exist or they haven't been added yet. Add 'em if you know 'em.

    Get Price
  • Bag's Groove - Learn Jazz Standards

    Series: Omnibook Format: Softcover Artist: Oscar Peterson This is the ultimate resource for studying the work of Oscar Peterson! Nearly 40 full piano transcriptions for the jazz piano master, including: All of Me • Between the Devil and the Deep Blue Sea • Falling in Love with Love • Georgia on My Mind • I Got It Bad and That Ain't Good • If I Were a Bell • In the Wee Small Hours ...

    Get Price
  • Oscar Peterson – Omnibook - Piano Transcriptions |

    Series: Omnibook Format: Softcover Artist: Oscar Peterson This is the ultimate resource for studying the work of Oscar Peterson! Nearly 40 full transcriptions of songs by this jazz piano master arranged for single-line C instruments, including: All of Me • Between the Devil and the Deep Blue Sea • Falling in Love with Love • Georgia on My Mind • I Got It Bad and That Ain't Good • If ...

    Get Price
  • Oscar Peterson – Omnibook - C Instruments | Hal

    2021-6-21 · Oscar Peterson Trio The Trio [180 Gram Vinyl] (LP) Oscar Peterson Trio View More. Label Releases. Bird In LA [Record Store Day] (LP) Charlie Parker ... Bags' Groove . Oscar Peterson 05:43: 5. Moten Swing . Oscar Peterson 02:55: 6. Easy Does It . Oscar Peterson ...

    Get Price
  • Oscar Peterson Trio - Night Train (CD) - Amoeba Music

    Although the repertoire on this CD reissue by the Oscar Peterson Trio (with bassist Ray Brown and drummer Ed Thigpen) is fairly typical (with such veteran standards as 'C Jam Blues,' 'Bags' Groove,' 'Easy Does It' and 'I Got It Bad'), Peterson and his sidemen sound fairly inspired. Actually the highpoints are the final two selections: Duke Ellington's 'Band Call' and the original version of O ...

    Get Price
  • Night Train - Oscar Peterson, Oscar Peterson Trio |

    2018-11-1 · (Artist Transcriptions). 11 note-for-note transcriptions from this iconic 1962 piano album by Peterson, which was re-released as a CD in 1997. Includes: Bags' Groove * Band Call * C-Jam Blues * Easy Does It * Georgia on My Mind * Honey Dripper * Hymn to Freedom * I Got It Bad and That Ain't Good * Moten Swing * Night Train * Things Ain't What They Used to Be.

    Get Price
  • Spartito Oscar Peterson - Night Train di Oscar Peterson

    TITLE 'Bags' Groove' PERFORMER 'The Oscar Peterson Trio' INDEX 00 03:43:40 FILE '04 - Bags' Groove.wav' WAVE INDEX 01 00:00:00 TRACK 05 AUDIO TITLE 'Moten Swing' PERFORMER 'The Oscar Peterson Trio' INDEX 00 05:38:62 FILE '05 - Moten Swing.wav' WAVE INDEX 01 00:00:00 TRACK 06 AUDIO

    Get Price
  • (Jazz, Bop) Oscar Peterson, 4 Albums: At The

    2019-1-3 · Oscar Peterson - The Paris Concert, Salle Pleyel, 1978 (1993) Lossless Artist : Oscar Peterson Title : The Paris Concert, Salle Pleyel, 1978 Year Of Release : 1993 Label : Pablo records Genre : Jazz Quality : FLAC (tracks+.cue,log) Total Time : 42:28, 52:51 Total Size : 436 MB

    Get Price
  • Jazz » Page 3051 | IsraBox

    2017-4-7 · Bags' Groove Kapustin: Piano Music, Vol. 2 摇摆巴赫 Piano Moods - The Very Best of Oscar Peterson Sibelius: Symphonies no.2 & 5 Celibidache.的舞台剧 · · · · · · ( 8 部看过) 看过 我和我和他和他 这一夜,Women说相声 ...

    Get Price
  • Bag's Groove - Learn Jazz Standards

    Although the repertoire on this CD reissue by the Oscar Peterson Trio (with bassist Ray Brown and drummer Ed Thigpen) is fairly typical (with such veteran standards as 'C Jam Blues,' 'Bags' Groove,' 'Easy Does It' and 'I Got It Bad'), Peterson and his sidemen sound fairly inspired. Actually the highpoints are the final two selections: Duke Ellington's 'Band Call' and the original version of O ...

    Get Price
  • Night Train - Oscar Peterson, Oscar Peterson Trio |

    TITLE 'Bags' Groove' PERFORMER 'The Oscar Peterson Trio' INDEX 00 03:43:40 FILE '04 - Bags' Groove.wav' WAVE INDEX 01 00:00:00 TRACK 05 AUDIO TITLE 'Moten Swing' PERFORMER 'The Oscar Peterson Trio' INDEX 00 05:38:62 FILE '05 - Moten Swing.wav' WAVE INDEX 01 00:00:00 TRACK 06 AUDIO

    Get Price
  • (Jazz, Bop) Oscar Peterson, 4 Albums: At The

    Schools don’t teach us People Skills. But your performance at work is judged by your ability to get along and motivate others. Learning how to motivate others should be simple, fast and uncomplicated. The Institute for Influence makes it easy to learn online with just 10-15 minutes a day without

    Get Price
  • Institute for Influence

    2021-7-9 · 研究院简介. 复旦大学国际问题研究院于2000年底在原有的美国研究中心、日本研究中心、韩国研究中心等研究机构的基础上成立。. 2013年起,为加强复旦大学的国际问题研究、更好地服务于国家外交...

    Get Price